#TITLE:Gravitation;
#SUBTITLE:YamiRyou;
#ARTIST:........;
#TITLETRANSLIT:;
#SUBTITLETRANSLIT:;
#ARTISTTRANSLIT:;
#CREDIT:;
#BANNER:banner.png;
#BACKGROUND:bg.jpg;
#LYRICSPATH:;
#CDTITLE:;
#MUSIC:Gravitation.mp3;
#OFFSET:-0.547;
#SAMPLESTART:11.786;
#SAMPLELENGTH:11.250;
#SELECTABLE:YES;
#DISPLAYBPM:340.000;
#BPMS:0.000=339.995,784.000=170.008,876.000=255.012,876.500=339.995,944.000=297.504,944.500=255.040,944.938=212.564,945.000=212.486,945.292=170.018,945.563=127.497,945.792=85.013,945.938=42.502,946.000=42.500,946.063=85.013,946.208=127.497,946.438=170.018,946.708=212.428,946.750=212.510,947.063=255.040,947.500=297.571,947.750=297.437,948.000=339.986,948.750=339.995,1390.000=319.977,1390.750=320.029,1391.000=300.000,1391.750=300.000,1392.000=280.020,1392.750=279.941,1393.000=259.990,1393.750=260.024,1394.000=239.993,1394.750=240.022,1395.000=220.011,1395.750=219.987,1396.000=200.010,1396.750=199.970,1397.000=180.000,1398.000=160.002,1398.750=159.976,1399.000=140.000,1400.000=119.996,1400.750=120.011,1401.000=100.000,1401.750=100.000,1402.000=79.998,1402.250=75.000,1402.500=70.000,1402.750=64.999,1403.000=60.000,1403.250=55.001,1403.500=50.000,1403.750=45.000,1404.000=39.999,1404.250=35.000,1404.500=30.000,1404.750=25.000,1405.000=20.000,1405.250=340.001,1405.750=254.641;
#STOPS:946.000=0.353
;
#BGCHANGES:;
// cache tags:
#FIRSTBEAT:32.000;
#LASTBEAT:1405.250;
#SONGFILENAME:Songs/Music V.I.P ^_^/Gravitation(Full )/Gravitation.sm;
#HASMUSIC:1;
#HASBANNER:1;
#MUSICLENGTH:279.919;
// end cache tags

//---------------dance-single - ----------------
#NOTES:
     dance-single:
     :
     Challenge:
     16:
     1.000,1.000,1.000,0.039,0.188,2266.000,789.000,11.000,0.000,11.000:
0000
0000
0000
0000
,
0000
0000
0000
0000
,
0000
0000
0000
0000
,
0000
0000
0000
0000
,
0000
0000
0000
0000
,
0000
0000
0000
0000
,
0000
0000
0000
0000
,
0000
0000
0000
0000
,
0001
0010
0100
1000
0101
0000
0010
1000
,
0100
0010
0100
0001
1010
0000
0001
1000
,
0100
1000
0010
0100
0011
0000
1000
0100
,
0010
0100
1001
0000
0110
0000
0010
0001
,
0010
0100
1000
0100
1010
0000
0001
1000
,
0100
1000
0001
0010
1100
0000
0001
0010
,
1100
0011
1010
0101
1010
0101
1010
0101
,
1010
0101
1010
0101
1010
0101
1010
0101
,
1100
1001
0011
1010
,
0101
1100
1001
0110
,
1010
0110
1100
0011
,
1001
0000
0010
0100
1000
0000
0010
0000
,
1100
1010
0011
1010
,
0101
0110
1001
0011
,
1100
1010
1001
0101
,
0011
0000
1000
0001
1000
0001
1000
0000
,
0110
0011
1010
0110
,
1100
0110
0101
1001
,
1001
0011
1001
1100
,
1001
0000
0100
0010
0001
0000
0100
0000
,
1010
0101
0011
1100
,
1001
0101
1010
0110
,
0110
0101
1010
0101
,
0110
0000
0001
0010
0100
1000
0100
0010
,
1001
0010
0100
1000
0010
0100
0001
1000
,
0010
0001
0100
0010
0100
1000
0001
0100
,
1010
0001
0010
0100
0010
0001
1000
0010
,
1000
0001
0100
0001
0010
0100
1000
0011
,
1100
0010
0100
0010
0001
0010
0100
0010
,
0001
0010
0100
0010
0001
0010
0100
1000
,
0101
0010
0000
0110
0000
0000
1001
0000
,
0110
0000
0001
1000
0100
0010
0001
1000
,
0101
0010
0100
1000
0100
0010
0100
0001
,
1000
0001
0010
1000
0100
1000
0010
0100
,
1001
0010
0100
1000
0100
0001
0100
0010
,
0001
0100
1000
0001
0010
0001
1000
0010
,
1100
0001
0010
0100
1000
0010
0001
0100
,
0010
1000
0100
0001
1000
0010
0001
0100
,
0011
0000
0000
1100
0000
0000
0101
0000
,
1010
0000
0010
0100
0010
0100
0010
0100
,
0011
0000
1000
0001
0110
0000
0001
0010
,
1100
0000
0100
1000
0011
0000
0100
0001
,
1100
0101
1100
0011
,
1010
0000
1000
0100
0010
0001
0110
0000
,
1100
0000
0100
1000
0110
0000
1000
0100
,
0011
0000
0010
0100
1001
0000
0110
0000
,
1010
0101
1010
0011
,
1100
0000
0010
0100
0010
0100
0010
0100
,
1010
0000
0010
1000
0101
0000
0001
0010
,
1100
0000
1000
0100
0011
0000
0100
0010
,
1001
0110
1100
0011
,
1001
0000
0010
1000
0010
1000
0101
1010
,
0101
0000
0001
0100
1010
0000
1000
0001
,
0110
0000
0010
0100
1001
0000
0101
0000
,
1100
0000
0000
0011
0000
0000
1001
0000
,
0210
0000
0011
1000
0011
1000
0011
1000
,
0301
1100
0001
1100
0001
1100
0001
1100
,
0011
0000
0110
0000
,
1001
0100
0010
0001
0010
0100
0001
1000
,
0110
0001
0010
0001
0100
1000
0100
0001
,
1100
0010
0101
1000
,
0011
0100
1010
0100
,
1001
1000
0110
0001
,
1100
0001
0110
0100
,
1001
0010
0100
1000
0100
0010
0001
0010
,
1100
0001
1010
0100
,
0011
0100
1000
0100
0010
0001
0010
1000
,
0101
1000
0001
0100
1000
0001
0110
0000
,
1001
0100
1010
0001
,
1100
0010
0101
0010
,
1100
0001
1010
0100
,
1001
0010
0101
1000
,
0011
1000
0100
1000
0001
0010
0001
0100
,
1000
0100
0010
0001
1000
0100
0010
0001
1000
0100
0010
0001
1000
0100
0010
0000
,
0100
0010
0001
0010
1000
0100
0010
0100
,
1001
0010
1000
0010
0001
0100
0001
1000
,
0101
1000
0110
0001
,
1010
0001
0110
0100
,
1001
0000
0000
0101
0000
0000
1010
0000
,
0110
0000
0000
1100
0000
0000
0011
0000
,
1001
0010
0100
0010
1000
0100
0010
0001
,
1100
0001
1010
0100
,
1001
0010
0001
0010
0100
1000
0100
0010
,
1100
0010
0001
0010
0100
1000
0011
0000
,
0101
1000
0011
0100
,
1001
0100
0011
0100
,
1001
0100
0010
0100
0001
1000
0110
0000
,
0110
0001
0010
0100
1000
0100
0010
0001
,
1000
0001
1000
0010
1000
0100
1010
0100
,
0010
0000
0001
0000
1010
0000
0100
0000
0001
0010
0100
1000
0001
0010
0100
1000
,
0001
0110
0101
1001
,
1010
1100
0110
1010
,
1001
1100
0011
1100
,
0110
0000
0011
0110
1100
0000
0001
0000
,
1010
0011
1010
1100
,
1010
0101
1010
0110
,
0011
0101
1001
1010
,
1100
0000
0010
0100
0001
1000
0010
0000
,
1100
0110
0101
1100
,
1001
0011
1010
0101
,
1100
0011
1010
0101
,
0110
0000
1000
0001
1000
0000
0010
0000
,
1001
0110
1010
0101
,
1001
0110
1100
0011
,
1100
0110
0011
0110
,
1001
0000
1000
0001
1000
0101
0010
0100
,
1001
0010
0101
0010
1001
0100
0010
0001
,
1010
0100
0001
1100
0001
0010
1000
0001
,
1100
0010
0100
0001
1100
0001
1000
0100
,
0011
0100
1000
0011
0100
0011
1000
0010
,
1100
0011
1000
0011
1000
0101
1000
0001
,
0010
0100
0011
0100
0010
1100
0010
0100
,
1011
0100
0011
0100
1000
0110
1000
0110
,
0001
1100
0001
0100
1000
0100
0010
0001
,
1100
0001
0010
0100
1000
0001
0010
0100
,
0010
0001
1000
0001
0100
1000
0010
0001
,
1010
0100
1000
0100
0010
0100
0001
1000
,
0100
1000
0001
0010
0100
1000
0010
0100
,
1001
0010
1000
0010
1000
0100
0001
0100
,
1000
0001
1000
0010
0100
0010
0001
1000
,
0110
0000
0000
1001
0000
0000
0110
0000
,
1001
0000
0001
1100
0001
1000
0011
1000
,
0110
0000
0100
1000
0011
0000
1000
0001
,
1100
0000
0010
0100
1001
0000
1000
0010
,
1100
1001
0011
1001
,
0110
0000
0001
1000
0001
0000
0011
0000
,
1010
0000
1000
0010
0101
0000
0100
0001
,
1100
0000
0100
1000
0011
0000
0100
0001
,
0110
1010
0011
1100
,
0101
0000
0011
1100
0011
1100
0011
1100
,
0011
0000
0001
0100
1010
0000
0001
0010
,
1100
0000
1000
0010
0101
0000
0001
0010
,
1100
0011
0110
1100
,
0011
0000
0100
0010
0100
0000
0100
0100
,
1100
0000
0010
0010
0011
0000
0100
0100
,
1011
0000
0010
0010
1101
0000
0011
0000
,
1001
0000
0000
0110
0000
0000
0110
0000
,
1002
0100
0010
0100
,
0010
0100
1000
0100
0010
0100
1000
0100
,
0013
0000
0110
0000
,
1100
0001
1000
0001
0010
0100
1000
0100
,
0011
0100
0001
0100
0010
0001
1000
0100
,
1010
0001
0010
1000
0101
0010
0001
0010
,
0100
1000
0100
0010
0100
1000
0100
0010
,
0100
1000
0101
0010
1001
0100
0010
0100
,
1010
0100
1010
0001
1010
0100
0010
0001
,
1100
0001
0010
0100
1000
0100
0010
0100
,
0011
0100
1010
0100
0011
1000
0110
0001
,
1100
0010
1000
0100
0010
0001
1000
0100
,
0011
0100
1000
0010
1000
0001
0110
1000
,
0110
0001
0110
1000
0101
1000
0110
1000
,
0101
0010
1100
0001
0110
1000
0011
0100
,
0011
1000
0101
0010
1100
0001
0110
0001
,
0010
0100
0011
1000
0101
1000
0110
0001
,
1010
0100
0011
1000
0001
0100
1000
0100
,
0001
0010
0100
1000
0001
0010
0100
1000
0001
0010
0100
1000
0001
0010
0100
0000
,
1001
0010
0100
1010
0100
0010
1001
0100
,
1010
0001
0010
0101
1000
0100
0010
0001
,
1100
0011
1100
0001
0110
1000
0110
0001
,
0110
1000
0010
1000
0110
0001
0100
0001
,
1010
0100
0011
1000
0010
0001
1100
0001
,
0110
1000
0110
0001
0010
0100
1001
0100
,
1001
0100
0010
0001
1001
0010
0100
0010
,
0100
1000
0101
0010
0100
1000
1001
0100
,
0010
0100
1001
0100
1010
0100
1000
1000
,
0100
1010
0001
1010
0001
1010
0001
0010
,
0101
1000
0100
0010
0101
1000
0110
0001
,
1100
0010
0100
0011
1100
0010
0001
0010
,
1100
0010
0001
0010
0100
1000
0110
0001
,
1001
0010
1000
0100
1000
0001
0010
0100
,
1001
0010
0100
1001
0010
0100
0010
0001
,
1001
0100
0010
0100
1001
0100
0011
0100
,
1001
0010
0100
1000
0001
0010
0100
1000
,
0001
0010
0100
1000
0001
0010
0100
1000
,
0001
0010
0100
1000
0100
0010
0001
0010
,
0100
1000
0100
0010
0001
0010
0100
1000
,
0011
0000
0010
1000
0101
0000
0010
0100
,
1001
0000
0100
0001
1010
0000
0001
0010
,
1100
0000
0001
0100
1010
0000
0100
0010
,
1001
0000
1000
0010
0101
0000
0010
0100
,
1001
0100
0010
0001
1000
0100
0010
0001
,
1000
0100
0010
0001
1000
0100
0010
0001
,
1000
0100
0010
0001
0010
0100
1000
0100
,
0010
0001
0010
0100
1000
0100
0010
0001
,
1100
0000
0010
1000
0101
0000
1000
0100
,
0011
0000
0100
0001
1010
0000
0001
1000
,
0110
0000
0001
0100
1010
0000
0100
1000
,
0011
0000
1000
0010
0101
0000
0001
0010
,
1100
0000
0000
0110
,
1000
0100
0010
0001
,
0110
0000
0000
0000
0110
0000
0000
1000
,
1000
0000
0100
0100
,
1000
0000
0000
0001
,
0010
0100
1000
0001
,
0100
0000
0000
1000
1001
0000
0000
0000
,
0101
0000
0000
0010
0010
0000
1000
0000
,
1000
0000
0000
0001
0000
0000
1010
0000
,
1001
0000
0000
0100
0100
0000
1001
1000
,
0010
0000
0000
0100
0000
0000
0010
0000
,
0110
0000
0000
0100
0100
0000
0011
0000
,
0010
0000
1000
0000
,
0001
0000
0100
0000
,
1001
0000
0000
0100
0100
0000
0101
1000
,
0002
0000
0000
0000
0000
0000
0000
0003
0110
0000
0000
0000
0110
0000
0000
0000
,
0220
0000
0000
0000
0000
0330
1001
0000
2002
0000
0000
0000
0000
0000
0000
3000
,
0100
1000
0100
0010
0100
1000
0100
0010
0100
1000
0100
0010
0103
1000
0100
0010
,
1001
0010
0100
0010
1101
0010
0001
0110
1000
0100
0001
0010
0100
1001
0100
0001
,
1010
0100
0010
0001
0010
0100
1001
0100
0010
0001
0010
0100
1001
0100
0010
0001
,
1001
0010
0100
1000
0001
0010
0001
1000
0100
1000
0010
1000
0001
0100
0001
0010
,
0100
1000
0010
0100
0001
1000
0001
0100
0010
0001
1000
0100
0011
0000
0110
0000
,
1100
0010
0001
0010
0100
0010
1000
0100
0010
0100
0010
0001
1000
0010
0100
1000
,
0001
1010
0101
1010
0101
1010
0101
1010
,
0101
1010
0101
1010
0101
1010
0101
1010
,
0001
1001
0101
0011
,
1010
1100
0011
0110
,
1001
0110
1100
0011
,
0110
0000
0010
0100
1010
0000
0010
0000
,
1100
1010
0110
0101
,
0011
1001
0110
1001
,
0011
1010
1001
0101
,
1100
0000
0001
0010
0100
0001
0001
0000
,
1010
0101
0110
1010
,
1100
1010
0110
0011
,
1001
0101
1010
0101
,
1100
0000
1000
0100
0010
0000
1000
0000
,
0101
1010
1001
1100
,
0101
0110
1001
1100
,
0011
1100
0101
1010
,
1100
0000
2200
0000
,
3311
0000
0000
0000
1100
0001
0010
0101
,
0010
0100
1010
0100
0011
1100
0010
1001
,
0100
0010
0101
0010
1001
0010
1100
0010
,
0001
1010
0101
1000
0100
0010
0100
1000
,
0101
0010
0001
0101
0100
1000
0101
0010
,
0010
0001
1010
0100
0011
1000
0100
0010
,
0010
0100
1010
0100
1001
0010
0100
1010
,
0100
0010
0100
1000
0011
0100
1000
0110
,
0001
0110
1000
0100
1001
0110
1000
0010
,
0100
1001
0010
1000
0011
0100
1001
0010
,
0100
1000
0011
1000
0110
0001
1010
0100
,
1010
0001
0110
1000
0110
0001
1010
0100
,
1000
0100
0010
0001
1001
0100
0010
0001
,
1100
0010
0100
0010
0100
1000
1001
0010
,
0001
0010
0100
1000
1010
0001
1010
0100
,
1001
0000
0010
0000
0100
0000
1010
0000
0001
0000
0010
0000
0100
0010
0001
1000
,
0100
0010
0001
1000
0100
0010
0001
1000
0100
0010
0001
0000
0010
0000
0100
0000
,
1001
0010
0100
1000
0011
1000
0101
0010
,
1001
0110
0001
0100
1010
0001
1001
0100
,
0010
0001
0110
1000
0100
0010
0001
1010
,
0100
0010
0001
1001
0100
0010
0001
1001
,
0010
0100
1010
0100
0011
0100
1000
0110
,
1000
0110
0001
0110
1000
0110
1000
0101
,
1010
0100
0010
1001
0110
0001
0110
1000
,
0110
0001
0110
1000
0110
0001
0010
0001
,
1010
0100
0010
1001
0110
0001
1100
0010
,
0001
1001
0110
0000
1001
0000
0010
1000
,
0101
0000
0100
1000
0011
0000
0010
1000
,
0101
0000
1000
0100
0011
1000
0100
0010
,
0001
1000
0110
0000
0110
0001
1000
0001
,
1000
0010
1000
0100
1000
0010
1000
0001
,
0010
0100
1000
0001
1100
0000
0001
0000
,
1010
0000
0100
0000
1001
0010
0001
0010
,
0100
1000
0100
0010
1100
0001
0010
0100
,
1000
0100
0001
1000
0011
0000
0100
0000
,
1010
0010
0101
0001
,
1010
0001
0110
0001
,
1100
1000
0011
0100
,
1001
0000
0001
0000
0110
1000
0100
0010
,
0001
0010
0100
1000
0011
0000
1000
0010
,
0101
0000
0010
0100
1001
0010
0100
0010
,
0100
1000
0010
0001
1100
0001
0010
0100
,
0010
0001
1100
0000
0101
0000
1000
0100
,
0011
0000
0010
0100
1001
0000
0100
1000
,
0011
0000
0010
0001
1100
0000
0001
0100
,
1010
0000
0010
0100
1001
0000
0100
0001
,
1010
0000
0001
0010
1100
0001
1000
0001
,
0010
0000
0100
0000
1000
0000
0010
0000
0001
0010
0100
1000
0001
0010
0100
1000
,
0001
0010
0100
1000
0001
0010
0100
1000
0001
0000
0100
0000
1010
0000
0100
0000
,
0010
0001
0010
1000
0101
0010
1000
0010
,
0100
1001
0100
0010
1001
0010
0101
1000
,
0110
0001
1010
0100
0011
0100
1010
0100
,
1001
0100
0010
1001
0101
0010
0100
1001
,
0100
0010
0101
1000
0110
0001
0010
1100
,
0010
0001
1010
0100
1001
0010
0100
1000
,
0101
0010
0100
1000
0101
0010
0100
0001
,
1010
0100
0001
0010
1100
0010
1001
0100
,
0010
0001
0100
0010
0101
0010
1000
0001
,
0010
1000
0101
1000
0011
1000
0100
0001
,
1010
0100
0010
1000
0101
1000
0011
0100
,
1010
0100
1000
0010
0101
1000
0011
1000
,
0011
1000
0110
0001
0110
1000
0010
0100
,
1010
0100
0010
1000
0101
1010
0101
1010
,
0101
1010
0101
1010
0101
1010
0101
1010
,
0001
0010
0100
1000
0001
0010
0100
1000
0011
0000
1000
0000
0100
0000
0010
0000
,
1001
0010
0100
0001
1100
0001
1100
0001
,
0010
0100
1000
0010
0101
0010
1000
0001
,
0110
1000
0001
0010
1100
0001
0010
0100
,
1001
0110
0001
1000
0110
1000
0100
0010
,
1101
0010
0100
1000
0011
1000
0110
0001
,
0110
1000
0010
0100
1001
0100
1001
0100
,
0010
1001
0010
0001
1100
0001
0010
0101
,
0010
0001
0100
0010
1001
0100
0010
0100
,
1000
0001
0010
0001
1100
0001
0010
1000
,
0001
0100
1000
0010
0101
0010
1000
0100
,
0011
0100
0001
1000
0110
0001
0010
1000
,
0101
0010
0100
0001
1010
0100
0001
0010
,
1100
0010
0001
0100
1010
0101
1000
0010
,
0101
0010
1000
0001
0110
1000
0100
0010
,
1001
0000
0010
0000
0100
0000
1000
0000
0011
0000
1000
0000
0100
0001
0010
0100
,
1000
0001
0010
0100
1000
0001
0010
0100
1000
0001
0010
0000
1000
0000
0001
0000
,
0010
1000
0001
0100
0011
1000
0001
1010
,
0100
1001
0010
0101
1010
0001
1100
0001
,
1100
0001
0010
1100
0011
0100
0010
1001
,
0101
1000
0010
0100
1001
1000
0100
0010
,
0010
0001
1100
0001
0110
1000
0100
0011
,
0100
0001
1010
0100
1001
0010
0100
1011
,
0100
0010
0001
0010
0101
0010
0100
0001
,
1010
1000
0100
0010
1001
0010
0100
1011
,
0100
0010
0001
1000
0110
0001
1100
0001
,
1100
0001
0010
0100
1001
0100
0010
1000
,
0011
0000
1000
0000
0100
0000
0001
0000
1000
0000
0101
0000
0010
0100
1000
0001
,
0010
0100
1000
0001
0010
0100
1000
0001
0010
0100
1000
0000
0001
0000
0010
0000
,
0101
1001
1010
0101
,
1100
0011
0110
1010
,
0101
0000
1010
0000
1001
0000
0010
0100
,
1010
0100
1100
0101
,
1100
0011
0101
1010
,
0110
1001
0011
0101
,
1001
0000
0101
0000
0011
0000
1000
0100
,
1010
0001
0001
0000
1100
0000
1001
0000
,
1010
1100
0011
0101
,
0110
0011
1100
1010
,
1001
0000
1100
0000
0101
0000
0100
0010
,
0101
0100
1001
0110
,
0011
0110
1100
1001
,
0101
1001
0011
0101
,
1001
0000
0011
0000
0110
0001
1010
0100
,
1001
0010
0100
0011
1100
0011
1100
0011
,
1100
0000
0011
0000
1100
0000
0100
0000
0001
0010
0100
1000
0001
0010
0100
1000
,
0001
0010
0100
1000
0001
0010
0100
1000
0022
0000
0000
0000
0000
0000
0000
0000
,
0000
0000
0000
0000
,
0000
0000
0000
0000
,
0000
0000
0000
0000
,
0000
0000
0000
0000
0000
0033
0000
0000
0000
0000
0000
0000
0000
0000
0000
0000
;
